Details for this torrent 

Gummi T- DVDrip norsk tale- Robban
Type:
Video > Movies
Files:
1
Size:
1.76 GiB (1890344409 Bytes)

Info:
IMDB
Spoken language(s):
Norwegian

Uploaded:
2013-10-05 12:32:24 GMT
By:
pobban2 Trusted

Seeders:
0
Leechers:
4
Comments
1  

Info Hash:
 
50861BD8B196137086DC102D8D1B6DFE60699401
picture




Dansk animasjonsfilm for hele familen, nyinnspilling fra 2012 bygget på boka Gummitarzan av Ole Lund Kirkegaard. 
Det er ikke lett å være Ivan Olsen, han får bank og buksevann av de store bøllene. Når han kommer hjem til sin far, får han høre at han ikke er like sterk og dyktig som Tarzan - Nei, Ivan er bare en Gummitarzan! Ivan vil virkelig gjøre sin far glad, så han prøver å være som Tarzan, men først når Ivan møter en heks og får superkrefter for en dag, blir Ivans far lykkelig. Ivans far skryter uhemmet av sin sønn, men da Ivans superkrefter ikke forsvinner som planlagt, merker Ivan at det ikke er like morsomt å måtte være så sterk og dyktig hele tiden. Ivan bestemmer seg for å fi nne heksa og bli seg selv igjen... 


General
Complete name                            : D:Gummi Tarzan- DVDrip norsk tale- Robban.mp4
Format                                   : MPEG-4
Format profile                           : Base Media / Version 2
Codec ID                                 : mp42
File size                                : 1.76 GiB
Duration                                 : 1h 17mn
Overall bit rate mode                    : Variable
Overall bit rate                         : 3 256 Kbps
Movie name                               : Gummi T.2012.Dansk.Norsk audio.DVD9.PAL.Saga.Title56.DVDRip
Album                                    : Gummi T.2012.Dansk.Norsk audio.DVD9.PAL.Saga
Encoded date                             : UTC 2013-10-05 10:09:01
Tagged date                              : UTC 2013-10-05 10:13:00
Writing application                      : DVDFab
covr                                     : Unknown kind of value!

Video
ID                                       : 1
Format                                   : AVC
Format/Info                              : Advanced Video Codec
Format profile                           : High@L3.0
Format settings, CABAC                   : Yes
Format settings, ReFrames                : 2 frames
Codec ID                                 : avc1
Codec ID/Info                            : Advanced Video Coding
Duration                                 : 1h 17mn
Bit rate mode                            : Variable
Bit rate                                 : 1 746 Kbps
Maximum bit rate                         : 2 619 Kbps
Width                                    : 720 pixels
Height                                   : 388 pixels
Display aspect ratio                     : 1.85:1
Frame rate mode                          : Constant
Frame rate                               : 25.000 fps
Color space                              : YUV
Chroma subsampling                       : 4:2:0
Bit depth                                : 8 bits
Scan type                                : Progressive
Bits/(Pixel*Frame)                       : 0.250
Stream size                              : 965 MiB (54%)
Encoded date                             : UTC 2013-10-05 10:09:01
Tagged date                              : UTC 2013-10-05 10:12:57
Color primaries                          : BT.601 NTSC
Transfer characteristics                 : BT.709
Matrix coefficients                      : BT.601

Audio
ID                                       : 2
Format                                   : DTS
Format/Info                              : Digital Theater Systems
Codec ID                                 : dtsc
Codec ID/Info                            : Digital Theater Systems
Duration                                 : 1h 17mn
Bit rate mode                            : Constant
Bit rate                                 : 1 510 Kbps
Channel(s)                               :  channel0
Sampling rate                            : 0 Hz
Bit depth                                : 28 bits
Compression mode                         : Lossy
Stream size                              : 836 MiB (46%)
Language                                 : Norwegian
Encoded date                             : UTC 2013-10-05 10:09:01
Tagged date                              : UTC 2013-10-05 10:12:48

Menu
ID                                       : 3
Codec ID                                 : text
Duration                                 : 1h 17mn
Encoded date                             : UTC 2013-10-05 10:09:01
Tagged date                              : UTC 2013-10-05 10:13:00
Bit rate mode                            : VBR

		

Comments

Ikke last ned denne, ta neste!!!!!!!!!!!!!!