Details for this torrent 

Barbie-Mariposa og Prinsessefeen-DVDrip norsk tale- Robban
Type:
Video > Movies
Files:
1
Size:
1.17 GiB (1260301555 Bytes)

Info:
IMDB
Spoken language(s):
Norwegian

Uploaded:
2013-10-05 12:25:06 GMT
By:
pobban2 Trusted

Seeders:
2
Leechers:
2
Comments
1  

Info Hash:
 
A518F7A2C4BF0DF5A9C8FD56BFE18126365DCE89
picture




Barbie - Mariposa og Prinsessefeen

Med gode venner finnes det ingen grenser for hva man kan få til Mariposa og hennes venn Zee er tilbake i Barbie Mariposa & Prinsessefeen. I dette magiske eventyret blir Mariposa utnevnt til ambassadør av Flutterfield og sendes ut for å skape fred mellom feriket og rivalene deres, krystallfeene i Shimmervale. Selv om Mariposa ikke gjør noe særlig godt førsteinntrykk på kongen, blir hun raskt venner med den sjenerte datteren hans, prinsesse Catania. Men en misforståelse fører til at Mariposa blir kastet ut av Shimmervale. På veien hjem til Flutterfield, møter Mariposa og Zee en mørk fe som planlegger å ødelegge Shimmervale. Mariposa skynder seg tilbake for å hjelpe prinsesse Catania™ med å redde riket sitt. Sammen beviser de to jentene at den beste måten å få en venn på, er å være en venn selv.

Originaltittel: Barbie - Mariposa and the Fairy Princess
Kategori: Barnefilm/Familiefilm/Animasjon
Prod. år: 2013
Opprinnelse: USA
Utgivelsesdato leie: 25.09.2013
Utgivelsesdato kjøp: 25.09.2013
Varighet: 1t 16m
Aldersgrense: 0 år


General
Complete name                            : Barbie-Mariposa og Prinsessefeen-DVDrip norsk tale- Robban.mp4
Format                                   : MPEG-4
Format profile                           : Base Media / Version 2
Codec ID                                 : mp42
File size                                : 1.17 GiB
Duration                                 : 1h 16mn
Overall bit rate mode                    : Variable
Overall bit rate                         : 2 205 Kbps
Movie name                               : BARBIE_MARIPOSA_FAIRY_PRINCESS
Album                                    : BARBIE_MARIPOSA_FAIRY_PRINCESS
Encoded date                             : UTC 2013-10-05 10:15:00
Tagged date                              : UTC 2013-10-05 10:19:28
Writing application                      : DVDFab
covr                                     : Unknown kind of value!

Video
ID                                       : 1
Format                                   : AVC
Format/Info                              : Advanced Video Codec
Format profile                           : High@L3.0
Format settings, CABAC                   : Yes
Format settings, ReFrames                : 2 frames
Codec ID                                 : avc1
Codec ID/Info                            : Advanced Video Coding
Duration                                 : 1h 16mn
Bit rate mode                            : Variable
Bit rate                                 : 1 817 Kbps
Maximum bit rate                         : 2 727 Kbps
Width                                    : 720 pixels
Height                                   : 404 pixels
Display aspect ratio                     : 16:9
Frame rate mode                          : Constant
Frame rate                               : 25.000 fps
Color space                              : YUV
Chroma subsampling                       : 4:2:0
Bit depth                                : 8 bits
Scan type                                : Progressive
Bits/(Pixel*Frame)                       : 0.250
Stream size                              : 991 MiB (82%)
Encoded date                             : UTC 2013-10-05 10:15:00
Tagged date                              : UTC 2013-10-05 10:19:25
Color primaries                          : BT.601 NTSC
Transfer characteristics                 : BT.709
Matrix coefficients                      : BT.601

Audio
ID                                       : 2
Format                                   : AC-3
Format/Info                              : Audio Coding 3
Mode extension                           : CM (complete main)
Format settings, Endianness              : Big
Codec ID                                 : ac-3
Duration                                 : 1h 16mn
Bit rate mode                            : Constant
Bit rate                                 : 384 Kbps
Channel(s)                               : 6 channels
Channel positions                        : Front: L C R, Side: L R, LFE
Sampling rate                            : 48.0 KHz
Bit depth                                : 16 bits
Compression mode                         : Lossy
Stream size                              : 209 MiB (17%)
Language                                 : Norwegian
Encoded date                             : UTC 2013-10-05 10:15:00
Tagged date                              : UTC 2013-10-05 10:19:19

Text #1
ID                                       : 3
Format                                   : mp4s
Codec ID                                 : E0
Duration                                 : 2mn 46s
Duration_FirstFrame                      : 2mn 43s
Bit rate mode                            : Constant
Bit rate                                 : 115 bps
Stream size                              : 2.33 KiB (0%)
Language                                 : English
Encoded date                             : UTC 2013-10-05 10:15:00
Tagged date                              : UTC 2013-10-05 10:19:19

Text #2
ID                                       : 4
Format                                   : mp4s
Codec ID                                 : E0
Duration                                 : 1h 16mn
Bit rate mode                            : Constant
Bit rate                                 : 13 bps
Nominal bit rate                         : 14 bps
Stream size                              : 7.33 KiB (0%)
Language                                 : Danish
Encoded date                             : UTC 2013-10-05 10:15:00
Tagged date                              : UTC 2013-10-05 10:19:19

Text #3
ID                                       : 5
Format                                   : mp4s
Codec ID                                 : E0
Duration                                 : 1h 16mn
Bit rate mode                            : Constant
Bit rate                                 : 12 bps
Nominal bit rate                         : 13 bps
Stream size                              : 6.89 KiB (0%)
Language                                 : Norwegian
Encoded date                             : UTC 2013-10-05 10:15:00
Tagged date                              : UTC 2013-10-05 10:19:19

Menu
ID                                       : 6
Codec ID                                 : text
Duration                                 : 1h 16mn
Encoded date                             : UTC 2013-10-05 10:15:00
Tagged date                              : UTC 2013-10-05 10:19:28
Bit rate mode                            : VBR

		

Comments

Jentene mine og jeg takker deg. Skal seede så lenge det trengs.