Details for this torrent 

Cinema Paradiso *1988*[mini-HD.1080p.AAC.BluRay.x264-LEON 345] [
Type:
Video > HD - Movies
Files:
3
Size:
1.94 GiB (2083285900 Bytes)

Info:
IMDB
Spoken language(s):
Polish

Uploaded:
2013-09-14 15:27:45 GMT
By:
Leon345

Seeders:
7
Leechers:
2
Comments
0  

Info Hash:
 
230E1859970424A750C5B394A3874634A13E3D99
picture




Cinema Paradiso - Nuovo Cinema Paradiso *1988*[mini-HD.1080p.AAC.BluRay.x264-LEON 345] [Lektor PL]
====================================================================

IMDB http://www.imdb.com/title/tt0095765/?ref_=sr_1

 Produkcja: Francja , Włochy 
 gatunek: Biograficzny, Dramat
 data premiery: 1988-11-17 (Świat)
 reżyseria Giuseppe Tornatore 
 scenariusz Giuseppe Tornatore, 
 muzyka Ennio Morricone,

 Obraz Tornatore zwyciężał w wielu konkursach i festiwalach, m.in Oskar dla najlepszego filmu obcojęzycznego, Złoty Glob, nagrody dla reżysera w Cannes, Wielkiej Brytani. Film przenosi nas w czasie kilkadziesiąt lat wstecz do małego włoskiego miasteczka, gdzie w każdą niedzielę wszyscy mieszkańcy zbierają się na rynku, aby oglądając filmy wyświetlane na ścianie kościoła razem poczuć magię kina i chociaż na chwilę oderwać się od rzeczywistości. Obraz ten pobudza do śmiechu, wzrusza i raduje. Poruszająca opowieść o przyjaźni, młodości i miłości do kina, przepełniona magią kina - obowiązkowo do obejrzenia!!

 General

 Format : MPEG-4
 Format profile : Base Media
 Codec ID : isom
 File size : 1.94 GiB
 Duration : 2h 3mn
 Overall bit rate mode : Variable
 Overall bit rate : 2 244 Kbps
 Movie name : Cinema Paradiso 1988 miniHD(Leon 345)
 Encoded date : UTC 2013-09-13 19:09:56
 Tagged date : UTC 2013-09-13 19:14:09

 Video
 ID : 1
 Format : AVC
 Format/Info : Advanced Video Codec
 Format profile : [email protected]
 Format settings, CABAC : Yes
 Format settings, ReFrames : 2 frames
 Codec ID : avc1
 Codec ID/Info : Advanced Video Coding
 Duration : 2h 3mn
 Bit rate : 2 142 Kbps
 Width : 1 920 pixels
 Height : 1 080 pixels
 Display aspect ratio : 16:9 (1.64:1)
 Frame rate mode : Constant
 Frame rate : 23.976 fps
 Color space : YUV
 Chroma subsampling : 4:2:0
 Bit depth : 8 bits
 Scan type : Progressive
 Bits/(Pixel*Frame) : 0.043
 Stream size : 1.85 GiB (95%)
 Title : Rip by Leon 345
 Writing library : x264 core
 Language : English
 Encoded date : UTC 2013-09-13 19:09:56
 Tagged date : UTC 2013-09-13 19:12:02
 Color primaries : BT.709
 Transfer characteristics : BT.709
 Matrix coefficients : BT.709

 Audio
 ID : 2
 Format : AAC
 Format/Info : Advanced Audio Codec
 Format profile : LC
 Codec ID : 40
 Duration : 2h 3mn
 Bit rate mode : Variable
 Bit rate : 96.0 Kbps
 Maximum bit rate : 116 Kbps
 Channel(s) : 2 channels
 Channel positions : Front: L R
 Sampling rate : 48.0 KHz
 Compression mode : Lossy
 Stream size : 84.0 MiB (4%)
 Title : Lektor PL dopasowanie i synchro Leon 345
 Language : English
 Encoded date : UTC 2013-09-13 19:11:38
 Tagged date : UTC 2013-09-13 19:12:02

 Source [thx]:
 A/V-Nuovo Cinema Paradiso (1988) 1080p BD-Remux-HDCLUB
 Lektor PL dopasowanie i synchro Leon 345