Details for this torrent 

MAMA.2013.DvDRip.XviD.Avi.Happyviking
Type:
Video > Movies
Files:
1
Size:
1.11 GiB (1187911680 Bytes)

Info:
IMDB
Tag(s):
Happyviking Horror

Uploaded:
2013-04-21 10:23:00 GMT
By:
Happyviking Trusted

Seeders:
2
Leechers:
1
Comments
2  

Info Hash:
 
F986310CBCE1ECA2BA155EEEDFED4BFBDB097716
picture




 http://www.imdb.com/title/tt2023587/


General
Complete name                    : Mama.2013.DvDRip.XviD.Avi.Happyviking.avi
Format                           : AVI
Format/Info                      : Audio Video Interleave
File size                        : 1.11 GiB
Duration                         : 1h 40mn
Overall bit rate                 : 1 582 Kbps
Writing application              : VirtualDubMod 1.5.10.2 (build 2540/release)
Writing library                  : VirtualDubMod build 2540/release

Video
ID                               : 0
Format                           : MPEG-4 Visual
Format profile                   : Advanced Simple@L5
Format settings, BVOP            : 1
Format settings, QPel            : No
Format settings, GMC             : No warppoints
Format settings, Matrix          : Default (H.263)
Codec ID                         : XVID
Codec ID/Hint                    : XviD
Duration                         : 1h 40mn
Bit rate                         : 1 189 Kbps
Width                            : 640 pixels
Height                           : 344 pixels
Display aspect ratio             : 1.860
Frame rate                       : 23.976 fps
Color space                      : YUV
Chroma subsampling               : 4:2:0
Bit depth                        : 8 bits
Scan type                        : Progressive
Compression mode                 : Lossy
Bits/(Pixel*Frame)               : 0.225
Stream size                      : 851 MiB (75%)
Writing library                  : XviD 1.2.1 (UTC 2008-12-04)

Audio
ID                               : 1
Format                           : AC-3
Format/Info                      : Audio Coding 3
Mode extension                   : CM (complete main)
Codec ID                         : 2000
Duration                         : 1h 40mn
Bit rate mode                    : Constant
Bit rate                         : 384 Kbps
Channel(s)                       : 6 channels
Channel positions                : Front: L C R, Side: L R, LFE
Sampling rate                    : 48.0 KHz
Bit depth                        : 16 bits
Compression mode                 : Lossy
Stream size                      : 275 MiB (24%)
Alignment                        : Aligned on interleaves
Interleave, duration             : 42 ms (1.00 video frame)
Interleave, preload duration     : 512 ms


Screens:
 
http://bayimg.com/jamJoAAEb 
http://bayimg.com/jAMjpaaeb 
http://bayimg.com/kAMjAaaeb 
http://bayimg.com/kamjcaaEB




Only movie in torrent, NO shit		

Comments

Annabel and Lucas are faced with the challenge of raising his young nieces that were left alone in the forest for 5 years.... but how alone were they